<svg xmlns="http://www.w3.org/2000/svg" xmlns:xlink="http://www.w3.org/1999/xlink" viewBox="0 0 1920 1080" xmlns:v="https://vecta.io/nano"><style><![CDATA[.w{letter-spacing:2}.x{fill:#e3e7ea}.y{fill:none}.z{stroke-width:2}.AA{stroke-miterlimit:10}.AB{fill:#fff}.AC{fill:#f4f5f7}.AD{fill:#e9ecef}.AE{stroke:#e9ecef}.AF{stroke:#fa5252}.AG{stroke:#fc5e5e}.AH{stroke:#ff6b6b}.AI{stroke:#ff7979}.AJ{fill:#bdc4d0}.AK{enable-background:new}]]></style><font horiz-adv-x="1000"><font-face units-per-em="1000" underline-position="-100" underline-thickness="50"/><missing-glyph horiz-adv-x="550" d="M116 63c52 0 32 57 68 57 44 0 29-48 54-48 15 0 24 11 24 27 0 23 14 31 26 31 36 0 56-30 80-30s35 16 35 33c0 32-20 27-20 49 0 13 11 21 25 21 34 0 41-50 72-50 29 0 52 23 52 52 0 25-11 45-40 45-33 0-44 13-44 26 0 34 32 34 32 72 0 64-78 58-78 96 0 22 48 26 48 69 0 29-18 48-47 48-30 0-53-16-53-53 0-33-7-48-35-48-38 0-30 48-72 48-45 0-17-55-49-55-18 0-21 35-42 35-7 0-16-7-16-14 0-10 8-17 8-24 0-5-3-8-9-8-22 0-40-11-40-37 0-16 10-33 10-49 0-13-7-40-27-40-10 0-14 11-27 11-19 0-33-21-33-39 0-26 10-52 30-52 15 0 14 7 30 7 15 0 28-15 28-38 0-60-42-49-42-97 0-24 24-45 52-45m-2 423c13 0 24 15 24 34s-11 34-24 34c-16 0-29-15-29-34s13-34 29-34m100-186c-22 0-36 18-36 40l36 50c22 0 40-22 40-50 0-22-18-40-40-40m124 0c-22 0-40 18-40 40s18 47 40 47l43-47c0-22-21-40-43-40m-17 24c9 0 16 11 16 23s-7 21-16 21c-8 0-14-9-14-21s6-23 14-23m-115-7c9 0 15 9 15 21 0 13-6 22-15 22-8 0-14-9-14-22 0-12 6-21 14-21m-54-111c81 83 130 87 206 5-93-10-125 35-206-5z"/><glyph unicode="\u0020" horiz-adv-x="205"/><glyph unicode="\u0049" horiz-adv-x="245" d="M150 0c11 0 20 9 20 20v660c0 11-9 20-20 20H95c-11 0-20-9-20-20V20C75 9 84 0 95 0z"/><glyph unicode="\u0053" horiz-adv-x="520" d="M262-10c132 0 223 82 223 202 0 104-67 186-175 210-117 26-158 58-158 120 0 57 43 93 114 93s114-35 114-95v-13c0-11 9-20 20-20h55c11 0 20 9 20 20v13c0 118-79 190-207 190-123 0-214-71-214-190 0-109 70-174 188-201 103-24 145-62 145-131 0-61-51-103-124-103-78 0-132 47-132 115v16c0 11-9 20-20 20H55c-11 0-20-9-20-20v-16C35 73 125-10 262-10z"/><glyph unicode="\u0056" horiz-adv-x="521" d="M299 0c9 0 16 5 19 15l185 654c2 7 3 11 3 17 0 7-7 14-17 14h-64c-9 0-16-5-19-15L267 152c-1-4-3-6-6-6h-2c-3 0-5 2-6 6L114 685c-3 10-10 15-19 15H32c-10 0-17-7-17-14 0-4 1-9 3-17L202 15c3-10 10-15 19-15z"/><glyph unicode="\u0061" horiz-adv-x="487" d="M222-10c74 0 99 38 117 38 10 0 15-12 20-21 3-5 8-7 14-7h34c11 0 20 9 20 20v330c0 105-63 160-182 160-115 0-182-53-182-143 0-13 7-20 20-20h46c16 0 23 5 23 17 0 43 34 67 92 67 60 0 93-27 93-78v-41c0-6-4-10-10-10H220c-114 0-180-53-180-153 0-96 72-159 182-159m7 83c-63 0-96 27-96 78 0 47 31 69 97 69h105c6 0 10-4 10-10v-32c0-71-37-105-116-105z"/><glyph unicode="\u003A" horiz-adv-x="240" d="M165 360c11 0 20 9 20 20v90c0 11-9 20-20 20H75c-11 0-20-9-20-20v-90c0-11 9-20 20-20M165 0c11 0 20 9 20 20v90c0 11-9 20-20 20H75c-11 0-20-9-20-20V20C55 9 64 0 75 0z"/><glyph unicode="\u0065" horiz-adv-x="504" d="M257-10c54 0 98 12 128 35 37 28 60 68 66 115 2 12-5 20-17 20h-51c-11 0-20-6-23-17-5-17-15-31-30-43-19-13-44-20-73-20s-55 8-73 23c-28 22-41 56-41 108 0 6 4 10 10 10h284c11 0 20 9 20 20v60c0 67-20 122-57 158-35 34-83 51-141 51-61 0-110-18-146-54-43-44-66-115-66-206 0-101 22-167 72-214 34-31 80-46 138-46M154 298c-6 0-10 4-10 10 0 38 11 69 33 91 20 20 49 31 82 31 32 0 59-11 78-31 22-22 33-53 33-91 0-6-4-10-10-10z"/><glyph unicode="\u0067" horiz-adv-x="510" d="M355-30c0-51-40-90-93-90-49 0-81 15-90 50-3 11-7 20-26 20H98c-14 0-20-8-18-23 12-83 84-137 182-137 102 0 183 79 183 180v510c0 11-9 20-20 20h-34c-7 0-12-2-14-7-7-16-12-21-20-21-21 0-36 38-117 38-75 0-136-32-162-86-21-43-31-97-31-169 0-80 9-130 32-170 29-53 86-85 153-85 66 0 87 32 105 32 13 0 18-9 18-32M249 420c42 0 77-16 94-46s18-63 18-119-1-86-18-119c-16-31-52-46-94-46s-78 15-94 46c-17 33-18 63-18 119s1 89 18 119c18 32 52 46 94 46z"/><glyph unicode="\u0068" horiz-adv-x="525" d="M135 0c11 0 20 9 20 20v284c0 72 48 116 110 116 72 0 110-47 110-121V20c0-11 9-20 20-20h50c11 0 20 9 20 20v311c0 107-64 179-172 179-88 0-97-36-118-36-13 0-20 9-20 32v184c0 11-9 20-20 20H85c-11 0-20-9-20-20V20C65 9 74 0 85 0z"/><glyph unicode="\u0069" horiz-adv-x="222" d="M150 602c9 0 16 7 16 16v76c0 8-7 16-16 16H72c-9 0-16-8-16-16v-76c0-9 7-16 16-16M137 0c11 0 20 9 20 20v460c0 11-9 20-20 20H85c-11 0-20-9-20-20V20C65 9 74 0 85 0z"/><glyph unicode="\u006C" horiz-adv-x="220" d="M135 0c11 0 20 9 20 20v670c0 11-9 20-20 20H85c-11 0-20-9-20-20V20C65 9 74 0 85 0z"/><glyph unicode="\u006D" horiz-adv-x="783" d="M135 0c11 0 20 9 20 20v305c0 55 41 95 97 95 59 0 97-39 97-100V20c0-11 9-20 20-20h50c11 0 20 9 20 20v305c0 55 41 95 97 95 59 0 97-39 97-100V20c0-11 9-20 20-20h50c11 0 20 9 20 20v311c0 105-69 179-167 179-45 0-90-17-122-47-5-5-13-9-20-9s-15 4-20 9c-36 31-75 47-117 47-83 0-86-41-109-41-8 0-16 7-25 23-3 6-8 8-14 8H85c-11 0-20-9-20-20V20C65 9 74 0 85 0z"/><glyph unicode="\u006E" horiz-adv-x="525" d="M135 0c11 0 20 9 20 20v284c0 72 48 116 110 116 72 0 110-47 110-121V20c0-11 9-20 20-20h50c11 0 20 9 20 20v311c0 107-64 179-170 179-90 0-104-40-126-40-16 0-19 13-26 23-3 5-8 7-14 7H85c-11 0-20-9-20-20V20C65 9 74 0 85 0z"/><glyph unicode="\u006F" horiz-adv-x="508" d="M254-10c78 0 136 32 170 83s37 107 37 177-3 126-37 177-92 83-170 83-136-32-170-83-37-107-37-177 3-126 37-177 92-83 170-83m0 90c-45 0-76 23-92 47-18 27-22 65-22 123s4 96 22 123c16 24 47 47 92 47s76-23 92-47c18-27 22-65 22-123s-4-96-22-123c-16-24-47-47-92-47z"/><glyph unicode="\u201C" horiz-adv-x="440" d="M150 700c-15 0-22-9-26-15l-49-73c-12-17-20-36-20-62v-90c0-11 9-20 20-20h90c11 0 20 9 20 20v90c0 11-9 20-20 20h-17c-6 0-13 6-9 13l43 84c2 4 3 8 3 13 0 11-7 20-21 20m186 0c-15 0-22-9-26-15l-49-73c-12-17-20-36-20-62v-90c0-11 9-20 20-20h90c11 0 20 9 20 20v90c0 11-9 20-20 20h-17c-6 0-13 6-9 13l43 84c2 4 3 8 3 13 0 11-7 20-21 20z"/><glyph unicode="\u201D" horiz-adv-x="440" d="M90 440c15 0 22 9 26 15l49 73c12 17 20 36 20 62v90c0 11-9 20-20 20H75c-11 0-20-9-20-20v-90c0-11 9-20 20-20h17c6 0 13-6 9-13l-43-84c-2-4-3-8-3-13 0-11 7-20 21-20m214 0c15 0 22 9 26 15l49 73c12 17 20 36 20 62v90c0 11-9 20-20 20h-90c-11 0-20-9-20-20v-90c0-11 9-20 20-20h17c6 0 13-6 9-13l-43-84c-2-4-3-8-3-13 0-11 7-20 21-20z"/><glyph unicode="\u0072" horiz-adv-x="360" d="M135 0c11 0 20 9 20 20v240c0 106 71 146 150 146h20c11 0 20 9 20 20v54c0 11-9 20-20 20h-20c-107 0-124-55-148-55-15 0-15 22-18 35-3 14-9 20-20 20H85c-11 0-20-9-20-20V20C65 9 74 0 85 0z"/><glyph unicode="\u0073" horiz-adv-x="460" d="M239-10c114 0 186 59 186 152 0 89-45 132-163 155-89 18-119 36-119 73 0 35 33 55 90 55 58 0 87-21 91-65 1-12 9-20 20-20h50c14 0 20 8 20 29 0 87-70 141-184 141-105 0-180-60-180-143s53-130 170-150c88-15 115-33 115-75 0-43-36-66-102-66-70 0-106 28-113 87-1 13-9 20-20 20H50c-15 0-20-8-20-31C30 52 110-10 239-10z"/><glyph unicode="\u0020" horiz-adv-x="205"/><glyph unicode="\u0074" horiz-adv-x="379" d="M340 0c11 0 20 9 20 20v50c0 11-9 20-20 20h-55c-54 0-80 22-80 70v235c0 6 4 10 10 10h115c11 0 20 9 20 20v50c0 11-9 20-20 20H215c-6 0-10 4-10 10v155c0 11-9 20-20 20h-50c-11 0-20-9-20-20V505c0-6-4-10-10-10H35c-11 0-20-9-20-20v-50c0-11 9-20 20-20h70c6 0 10-4 10-10V160C115 54 172 0 285 0z"/><glyph unicode="\u0075" horiz-adv-x="525" d="M390 500c-11 0-20-9-20-20V196c0-72-48-116-110-116-72 0-110 47-110 121v279c0 11-9 20-20 20H80c-11 0-20-9-20-20V169C60 62 124-10 230-10c90 0 104 40 126 40 16 0 19-13 26-23 3-5 8-7 14-7h44c11 0 20 9 20 20v460c0 11-9 20-20 20z"/><glyph unicode="\u0077" horiz-adv-x="666" d="M219 0c9 0 16 5 19 15l91 330c1 4 7 4 8 0l91-330c3-10 10-15 19-15h55c9 0 16 5 19 15l127 452c2 8 3 14 3 18 0 7-7 15-19 15h-57c-9 0-16-4-19-15l-77-324c-2-8-11-8-13 0l-88 324c-3 11-10 15-19 15h-52c-9 0-16-4-19-15l-88-324c-2-8-11-8-13 0l-77 324c-3 11-10 15-19 15H34c-12 0-19-8-19-15 0-5 1-10 3-18L145 15c3-10 10-15 19-15z"/></font>
</svg>
